zoozle
Category: Direct Downloads Torrent eMule Usenet Streams

Badges of Fury 2013 BRRip x264 AC3 MiLLENiUM
Download Torrent

  • aac ssn
  • 480p vyto p2pdl
  • 2013brrip xvid vicky

DOWNLOAD
Badges of Fury (2013)BRRip AC3 XViD-ViCKY possibly with 100 Mbit/s



1.Description Badges of Fury 2013 BRRip 480p x264 AAC - VYTO [P2PDL]:
[center]
Badges of Fury 2013 BRRip 480p x264 AAC - VYTO
Quote:
Original Title: Bu Er Shen Tan
Genre: Action | Comedy | Crime
Plot: When a spate of eerie murders erupts across HK two troublemaking cops are assigned
to the case.
Director: Tsz Ming Wong
Stars: Jet Li, Zhang Wen, Shishi Liu
Rated: N/a
Info:
http://www.imdb.com/title/tt2644714/
Trailer:
http://www.youtube.com/watch?v=9NF7czH1m_I
Quote:
Format                         : MPEG-4
File size                      : 352 MiB
Duration                       : 1h 37mn
Overall bit rate               : 502 Kbps
Video
Format                         : AVC
Bit rate                       : 459 Kbps
Width                          : 720 pixels
Height                         : 304 pixels
Display aspect ratio           : 2.35:1
Frame rate mode                : Constant
Frame rate                     : 24.000 fps
Bit depth                      : 10 bits
Stream size                    : 321 MiB (91%)
Writing library                : x264 core 133 r2334
Audio
Format                         : AAC
Bit rate mode                  : Variable
Bit rate                       : 39.9 Kbps
Channel(s)                     : 2 channels
Channel positions              : Front: L R
Sampling rate                  : 48.0 KHz
Stream size                    : 28.0 MiB (8%)
Language                       : Chinese
Subtitle                       : Yes(English)
Source                         : 720p.BluRay.x264-WiKi
Screenshots:
----------------------------------------------------------------------------------------------------
Quote:
Encoded using revolutionary 10bit encoding, which enables us to provide you more crispier
and sharper images at small sizes, just make sure you follow our instructions without a fault.
Recommend to you to use latest version of VLC player. Install K-Lite Codec Pack or shark007 codecs
in case of any kind of problem in playback (For non-VLC Media Player users). Alternatively, install
Core AVC codecs, the fastest decoder that there is coupled with Community Center Codec Pack and play
on Windows Media Player Classic. Check sample to be sure.
Enjoy!
Encoder Notes: Looking For Early Access To Anything You Can Provide DVDScr, R5, DVDR, BluRay, Direct
Audio, Music Releases and Seedboxes. We require dedicated servers, so as to do more and fast releases of movies.
If You Got anything to offer contact us at "prg@hush.com".
[/center]
Category:Movies
Size:356.44 MB
function ShowHide(id,id1) {
obj = document.getElementsByTagName("div");
if (obj[id].style.display == 'block'){
obj[id].style.display = 'none';
obj[id1].style.display = 'block';
}
else {
obj[id].style.display = 'block';
obj[id1].style.display = 'none';
}
}


2.Description Badges of Fury 2013 BRRip 480p x264 AAC - VYTO [P2PDL]:
[center]
Badges of Fury 2013 BRRip 480p x264 AAC - VYTO
Quote:
Original Title: Bu Er Shen Tan
Genre: Action | Comedy | Crime
Plot: When a spate of eerie murders erupts across HK two troublemaking cops are assigned
to the case.
Director: Tsz Ming Wong
Stars: Jet Li, Zhang Wen, Shishi Liu
Rated: N/a
Info:
http://www.imdb.com/title/tt2644714/
Trailer:
http://www.youtube.com/watch?v=9NF7czH1m_I
Quote:
Format                         : MPEG-4
File size                      : 352 MiB
Duration                       : 1h 37mn
Overall bit rate               : 502 Kbps
Video
Format                         : AVC
Bit rate                       : 459 Kbps
Width                          : 720 pixels
Height                         : 304 pixels
Display aspect ratio           : 2.35:1
Frame rate mode                : Constant
Frame rate                     : 24.000 fps
Bit depth                      : 10 bits
Stream size                    : 321 MiB (91%)
Writing library                : x264 core 133 r2334
Audio
Format                         : AAC
Bit rate mode                  : Variable
Bit rate                       : 39.9 Kbps
Channel(s)                     : 2 channels
Channel positions              : Front: L R
Sampling rate                  : 48.0 KHz
Stream size                    : 28.0 MiB (8%)
Language                       : Chinese
Subtitle                       : Yes(English)
Source                         : 720p.BluRay.x264-WiKi
Screenshots:
----------------------------------------------------------------------------------------------------
Quote:
Encoded using revolutionary 10bit encoding, which enables us to provide you more crispier
and sharper images at small sizes, just make sure you follow our instructions without a fault.
Recommend to you to use latest version of VLC player. Install K-Lite Codec Pack or shark007 codecs
in case of any kind of problem in playback (For non-VLC Media Player users). Alternatively, install
Core AVC codecs, the fastest decoder that there is coupled with Community Center Codec Pack and play
on Windows Media Player Classic. Check sample to be sure.
Enjoy!
Encoder Notes: Looking For Early Access To Anything You Can Provide DVDScr, R5, DVDR, BluRay, Direct
Audio, Music Releases and Seedboxes. We require dedicated servers, so as to do more and fast releases of movies.
If You Got anything to offer contact us at "prg@hush.com".
[/center]


3.Description Badges of Fury 2013 BRRip 480p x264 AAC - VYTO [P2PDL]:
Name:Badges of Fury 2013 BRRip 480p x264 AAC - VYTO [P2PDL].torrent
Seeds: 2
Leechers: 12
VPN: Anonymous Download with BTGuard
Total Size: 356.44 MB
Downloaded: 25
Torrent added: 2013-09-05 00:17:29
Last Updated: 0000-00-00 00:00:00 (Update Now)
Alternatives:Badges of Fury 2013 BRRip 480p x264 AAC - VYTO [P2PDL] Torrents


4.Description Badges.of.Fury.2013.BRRip.XviD.AC3-RARBG:
Badges.of.Fury.2013.720p.BRRip.XviD.AC3-RARBG
Title: Badges of Fury (2013)
IMDB Rating: 4.5/10
Genres: Action , Comedy , Crime
Actors: Jet Li , Zhang Wen , Shishi Liu , Michelle Chen , Yan Liu , Aaron Shang , Singh Hartihan Bitto , Collin Chou , Lik-Sun Fong , Stephen Fung , Grace Huang , Xiaoming Huang , Raymond Lam , Ka-Yan Leung , Siu-Lung Leung
Year: 2013
Plot:
Badges Of Fury| a crime thriller featuring one hell of a martial arts trio with Jet Li (needs no introduction)| Collin Chou (The Matrix Reloaded| Flashpoint) and Wu
Jing (SPL / Kill Zone) in the lead roles. When a spate of eerie murders erupts across HK two troublemaking cops are assigned to the case. Young maverick WANG and
grizzled vet HUANG who is fed up with his reckless younger partner always landing them in hot water. Reaching a dead end after discovering all the victims were
former boyfriends of aspiring starlet LIU| the detectives must play a deadly game. One of them must go undercover as Liu's lover to lure the killer out. Li| Chou and
Wu are three of the finest screen fighters in the world and with Kung Fu Hustle and Crouching Tiger vet Po Chu Chui in the producer's chair here's betting they're
put to good use

Direct external links to Torrent Download Source Date
Badges of Fury 2013 BRRip x264 AC3-MiLLENiUM limetorrents.com 01/16/2014
Badges of Fury 2013 BRRip x264 AC3-MiLLENiUM vertor.com 01/16/2014
Badges-of-Fury-2013-BRRip-x264-AC3-MiLLENiUM torrentr.eu 01/15/2014
- Badges of Fury 2013 BRRip x264 AC3-MiLLENiUM torrentbit.net 01/15/2014
Badges.of.Fury.2013.BRRip.x264.AC3.MiLLENiUM - utorrent.ph 01/15/2014


Search Badges of Fury (2013)BRRip AC3 XViD-ViCKY in Usenet, RapidShare, eMule, Streams


Recent Downloads:
Big Pun: The Legacy (Englisch) (2008) » Film
SuicideGirls.14.06.14.Usagimomo.Playing.In.The.Red.XXX.iMAGESET.OHRLY
The league of extraordinary gentlemen i


Recent search requests:
heavy joe elliott s down n outz stiff upper lip
mp3s the beatles i feel fine
leadfoot rivet between a woman and a man hip hop


Friends: eMule Mod Download