zoozle
Category: Direct Downloads Torrent eMule Usenet Streams

How To Train Your Dragon 2 xiMARS
Download Torrent

  • multips3region freefw 4 4ximars
  • multiwii scrubberpalwiierd
  • official trailer 2014 720p amar mp4
  • 2010 4k uhd
  • 1 amp2
  • 3d hsbs brrip x264 yify
  • v1 0 android
  • hdrip xvid

DOWNLOAD
How To Train Your Dragon possibly with 100 Mbit/s



1.Description How To Train Your Dragon:
The son of a Viking chief must capture a dragon in order to mark his passage into manhood and prove his worthiness to the tribe in directors Chris Sanders and Dean DeBlois' adaptation of Cressida Cowell's popular children's book. Gerard Butler, America Ferrera, Jonah Hill, Jay Baruchel, and Christopher Mintz-Plasse provide voices for the DreamWorks Animation production. Jason Buchanan, All Movie Guide


2.Description How to Train Your Dragon (2010):
Release Date:
26 March 2010 (USA) See more »
Genre:
Animation | Adventure | Comedy | Family | Fantasy See more »
Plot:
A hapless young Viking who aspires to hunt dragons becomes the unlikely friend of a young dragon himself, and learns there may be more to the creatures than he assumed.


3.Description How to Train Your Dragon[2009]DvDrip[Eng]-FXG:
How.to.Train.Your.Dragon[2009]DvDrip[Eng]-FXG
Format
: AVI
Format/Info
: Audio Video Interleave
File size
: 882 Mb
Overall bit rate
: 1 502 Kbps
Writing application
: VirtualDubMod 1.5.10.2 (build 2540/release)
Writing library
: Boilsoft AVI tool build 1/release
Video
ID
: 0
Format
: MPEG-4 Visual
Format profile
: AdvancedSimple[@]L5
Format settings, BVOP
: Yes
Format settings, QPel
: No
Format settings, GMC
: No warppoints
Format settings, Matrix
: Default (H.263)
Codec ID
: XVID
Codec ID/Hint
: XviD
Duration
: 2h 10mn
Bit rate
: 1 363 Kbps
Width
: 608 pixels
Height
: 256 pixels
Display aspect ratio
: 2.35:1
Frame rate
: 25.000 fps
Resolution
: 24 bits
Colorimetry
: 4:2:0
Scan type
: Progressive
Bits/(Pixel*Frame)
: 0.350
Stream size
: 904 Mb (91%)
Writing library
: XviD 1.2.1 (UTC 2008-12-04)
Audio
ID
: 1
Format
: MPEG Audio
Format version
: Version 1
Format profile
: Layer 3
Codec ID
: 55
Codec ID/Hint
: MP3
Duration
: 1h 43mn
Bit rate mode
: Variable
Bit rate
: 128 Kbps
Channel(s)
: 2 channels
Sampling rate
: 48.0 KHz
Resolution
: 16 bits
Stream size
: 118 MiB (8%)
Alignment
: Aligned on interleaves
Interleave, duration
: 24 ms (0.60 video frame)
Interleave, preload duration
: 231 ms
ENCODE NOTE: Original XViD videosource...Thank You...Please Seed...


4.Description How to train your dragon 2010 English DVDSCR AC3-MAX avi:
Release Date:
26 March 2010 (USA) See more »
Genre:
Animation | Adventure | Comedy | Family | Fantasy See more »
Plot:
A hapless young Viking who aspires to hunt dragons becomes the unlikely friend of a young dragon himself, and learns there may be more to the creatures than he assumed.


5.Description How to Train your Dragon 2010 R5 DVDRip XViD-MAXSPEED Torrent Download:
Format : AVI
Format/Info : Audio Video Interleave
Overall bit rate : 1 025 Kbps
Writing application : VirtualDubMod 1.5.10.2 (build 2540/release)
Writing library : VirtualDubMod build 2540/release
Video
Format : MPEG-4 Visual
Format profile : Streaming Video@L1
Format settings, BVOP : Yes
Format settings, QPel : No
Format settings, GMC : No warppoints
Format settings, Matrix : Default
Codec ID : XVID
Codec ID/Hint : Xvi
Subtitle: French,Spanish,Portuguese
Bit rate : 881 Kbps
Width : 640 pixels
Height : 272 pixels
Display aspect ratio : 2.35
Frame rate : 25.000 fps
Resolution : 24 bits
Colorimetry : 4:2:0
Scan type : Progressive
Bits/(Pixel*Frame) : 0.203
Writing library : XviD 1.1.2 (UTC 2006-11-01)
Audio
Format : MPEG Audio
Format version : Version 1
Format profile : Layer 3
Codec ID : 55
Codec ID/Hint : MP
Bit rate mode : Variable
Bit rate : 131 Kbps
Nominal bit rate : 128 Kbps
Channel(s) : 2 channels
Sampling rate : 48.0 KHz
Resolution : 16 bits
Alignment : Aligned on interleaves
Interleave, duration : 24 ms (0.60 video frame)
Interleave, preload duration : 140 ms
Writing library : LAME3.90.
Encoding settings : ABR


6.Description How.to.Train.Your.Dragon.(2O1O).DVDRip.XviD-MAX:
How.to.Train.Your.Dragon.(2O1O).DVDRip.XviD-MAX
Format
: AVI
Format/Info
: Audio Video Interleave
Overall bit rate
: 1 502 Kbps
Writing application
: VirtualDubMod 1.5.10.2(build 2540/release)
Writing library
: Boilsoft AVI tool build 1/release
Video
ID
: 0
Format
: MPEG-4 Visual
Format profile
: AdvancedSimple[@]L5
Format settings, BVOP
: Yes
Format settings, QPel
: No
Format settings, GMC
: No warppoints
Format settings, Matrix
: Default (H.263)
Codec ID
: XVID
Codec ID/Hint
: XviD
Duration
: 1h 43mn
Bit rate
: 1 363 Kbps
Width
: 608 pixels
Height
: 256 pixels
Display aspect ratio
: 2.35:1
Frame rate
: 25.000 fps
Resolution
: 24 bits
Colorimetry
: 4:2:0
Scan type
: Progressive
Bits/(Pixel*Frame)
: 0.350
Stream size
: 904 Mb (91%)
Writing library
: XviD 1.2.1 (UTC 2008-12-04)
Audio
ID
: 1
Format
: MPEG Audio
Format version
: Version 1
Format profile
: Layer 3
Codec ID
: 55
Codec ID/Hint
: MP3
Duration
: 1h 43mn
Bit rate mode
: Variable
Bit rate
: 128 Kbps
Channel(s)
: 2 channels
Sampling rate
: 48.0 KHz
Resolution
: 16 bits
Stream size
: 118 MiB (8%)
Alignment
: Aligned on interleaves
Interleave, duration
: 24 ms (0.60 video frame)
Interleave, preload duration
: 231 ms
ENCODE NOTE: Original XViD videosource...Thank You.


7.Description How.to.Train.Your.Dragon.2OIO.DvDripEng-FXG:
How.to.Train.Your.Dragon.2OIO.DvDrip[Eng]-FXG
Format
: AVI
Format/Info
: Audio Video Interleave
File size
: (100%)
Duration
: 1h 54mn
Overall bit rate
: 1 703 Kbps
Writing application
: VirtualDubMod 1.5.10.2 (build 2542/release)
Writing library
: VirtualDubMod build 2542/release
Original source form
: MAX TORRENTZ
Copyright
: SIGISMUNT
Video
ID
: 0
Format
: MPEG-4 Visual
Format profile
: AdvancedSimple@L5
Format settings, BVOP
: Yes
Format settings, QPel
: No
Format settings, GMC
: No warppoints
Format settings, Matrix
: Default (MPEG)
Muxing mode
: Packed bitstream
Codec ID
: XVID
Codec ID/Hint
: XviD
Duration
: 1h 38mn
Bit rate
: 1 246 Kbps
Width
: 640 pixels
Height
: 272 pixels
Display aspect ratio
: 2.35:1
Frame rate
: 23.976 fps
Resolution
: 24 bits
Colorimetry
: 4:2:0
Scan type
: Progressive
Bits/(Pixel*Frame)
: 0.299
Stream size
: 1.03 GiB (73%)
Writing library
: XviD 1.2.1 (UTC 2008-12-04)
Audio
ID
: 1
Format
: AC-3
Format/Info
: Audio Coding 3
Codec ID
: 2000
Duration
: 1h 38mn
Bit rate mode
: Constant
Bit rate
: 448 Kbps
Channel(s)
: 6 channels
Channel positions
: Front: L C R, Surround: L R, LFE
Sampling rate
: 48.0 KHz
Stream size
: 368 MiB (26%)
Alignment
: Split accross interleaves
Interleave, duration
: 42 ms (1.00 video frame)
Interleave, preload duration
: 500 ms
DVDRip Ratings: Audio/Video/Movie 10/9.5/8


8.Description How to Train your Dragon 2010 DVDSCREENER XViD NORARS AC3 - IMAGINEEXTRATORRENTS:
General
Complete name : How.to.Train.Your.Dragon.2010
Format : AVI
Format/Info : Audio Video Interleave
Duration : 1h 38mn
Overall bit rate : 1 261 Kbps
Writing library : VirtualDub build 32706/release
Video
ID : 0
Format : MPEG-4 Visual
Format settings, BVOP : Yes
Format settings, QPel : No
Format settings, GMC : No warppoints
Format settings, Matrix : Default (H.263)
Codec ID : DX50
Codec ID/Hint : DivX 5
Duration : 1h 28mn
Bit rate : 1 123 Kbps
Width : 704 pixels
Height : 304 pixels
Display aspect ratio : 2.35:1
Frame rate : 25.000 fps
Resolution : 8 bits
Colorimetry : 4:2:0
Scan type : Progressive
Bits/(Pixel*Frame) : 0.210
Stream size : 713 MiB (89%)
Writing library : DivX 6.8.5 (UTC 2009-08-20)
Audio
ID : 1
Format : MPEG Audio
Format version : Version 1
Format profile : Layer 3
Mode : Joint stereo
Format_Settings_ModeExtension : MS Stereo
Codec ID : 55
Codec ID/Hint : MP3
Duration : 1h 28mn
Bit rate mode : Constant
Bit rate : 128 Kbps
Channel(s) : 2 channels
Sampling rate : 48.0 KHz
Stream size : 81.2 MiB (10%)
Alignment : Split accross interleaves
Interleave, duration : 40 ms (1.00 video frame)
Interleave, preload duration : 500 ms
PLOT:
A hapless young Viking who aspires to hunt dragons becomes the
unlikely owner of a young dragon himself, and learns there may
be more to the creatures than he assumed.
CASTS:
Jay Baruchel
... Hiccup (voice)
Gerard Butler
... Stoick (voice)
Craig Ferguson
... Gobber (voice)
America Ferrera
... Astrid (voice)
Jonah Hill
... Snotlout (voice)
Christopher Mintz-Plasse ... Fishlegs (voice)
T.J. Miller
... Tuffnut (voice)
Kristen Wiig
... Ruffnut (voice)
Robin Atkin Downes ... Ack
Philip McGrade
... Starkard (voice)
Kieron Elliott
... Hoark the Haggard (voice)
Ashley Jensen
... Phlegma the Fierce
NOTES:
FOR MORE MOVIE INFO...... http://www.imdb.com/title/tt0892769/
RE-EDITED AND RE-SYNC FOR A BETTER QUALITY VERSION OF THE MOVIE...
THANKS AND ENJOY!
Screens
http://img43.imageshack.us/img43/8339/scene1l.png
http://img194.imageshack.us/img194/4796/scene2e.png
http://img693.imageshack.us/img693/5807/scene3.png
http://img248.imageshack.us/img248/2575/scene4.png
http://img687.imageshack.us/img687/2608/scene5.png


9.Description How to Train Your Dragon 2010 DVDRIP Perfect Quality:
Long ago up North on the Island of Berk, the young Viking, Hiccup, wants to join his town\'s fight against the dragons that continually raid their town. However, his macho father and village leader, Stoik the Vast, will not allow his small, clumsy, but inventive son to do so. Regardless, Hiccup ventures out into battle and downs a mysterious Night Fury dragon with his invention, but can\'t bring himself to kill it. Instead, Hiccup and the dragon, whom he dubs Toothless, begin a friendship that would open up both their worlds as the observant boy learns that his people have misjudged the species. But even as the two each take flight in their own way, they find that they must fight the destructive ignorance plaguing their world.


10.Description How to train your dragon.2010.R5.LinE.xViD {1337x}-Noir:
How to Train Your Dragon
Year:2010
Genre:Animati0n
Director:Dean DeBlois Chris Sanders
Plot:A hapless young Viking who aspires to hunt dragons becomes the unlikely owner of a young dragon himself, and learns there may be more to the creatures than he assumed.
General
Format
: AVI
Format/Info
: Audio Video Interleave
File size
: 1.36 GiB
Duration
: 1h 40mn
Overall bit rate
: 1 937 Kbps
Writing application
: VirtualDubMod 1.5.4.1 (build 2178/release)
Writing library
: VirtualDubMod build 2178/release
Video
ID
: 0
Format
: MPEG-4 Visual
Format profile
: Simple@L3
Format settings, BVOP
: No
Format settings, QPel
: No
Format settings, GMC
: No warppoints
Format settings, Matrix
: Default (H.263)
Codec ID
: XVID
Codec ID/Hint
: XviD
Duration
: 1h 40mn
Bit rate
: 1 480 Kbps
Width
: 720 pixels
Height
: 304 pixels
Display aspect ratio
: 2.35:1
Frame rate
: 23.976 fps
Resolution
: 8 bits
Colorimetry
: 4:2:0
Scan type
: Progressive
Bits/(Pixel*Frame)
: 0.282
Stream size
: 1.04 GiB (76%)
Writing library
: XviD 1.1.2 (UTC 2006-11-01)
Audio
ID
: 1
Format
: AC-3
Format/Info
: Audio Coding 3
Format_Settings_ModeExtension
: CM (complete main)
Codec ID
: 2000
Duration
: 1h 40mn
Bit rate mode
: Constant
Bit rate
: 448 Kbps
Channel(s)
: 6 channels
Channel positions
: Front: L C R, Side: L R, LFE
Sampling rate
: 48.0 KHz
Stream size
: 323 MiB (23%)
Alignment
: Split accross interleaves
Interleave, duration
: 42 ms (1.00 video frame)
Interleave, preload duration
: 500 ms
Thanks to Simply ReleaseS for the source.. Nice job again!

Direct external links to Torrent Download Source Date
How To Train Your Dragon 2 [MULTI][PS3][Region Free][FW 4 4x][iMARS] limetorrents.com 12/17/2014
How To Train Your Dragon 2 [MULTI][WII-Scrubber][PAL][WiiERD] limetorrents.com 12/16/2014
HOW TO TRAIN YOUR DRAGON 2 Official Trailer 2014 720p Amar MP4 bittorrent.am 12/14/2014
How to Train Your Dragon 2010 4K UHD bittorrent.am 12/14/2014
How to Train Your Dragon 1&2 torrentroom.com 12/13/2014


Search How To Train Your Dragon in Usenet, RapidShare, eMule, Streams


Recent Downloads:
Youngest nubiles
Qsh privat
Mostenirea E24 XviD TVRip ProTV(23-11-10).avi


Recent search requests:
dan shay show you off german
tiken jah fakoly too much confusion feat patrice music
singles chase bryant take it on back


Friends: eMule Mod Download